1. This site uses cookies. By continuing to use this site, you are agreeing to our use of cookies. Learn More.

Vine

Discussion in 'Social Networking Sites' started by bmariexo, Jul 13, 2013.

  1. bmariexo

    bmariexo Registered Member

    Joined:
    Mar 23, 2013
    Messages:
    53
    Likes Received:
    4
  2. tompots

    tompots Elite Member Premium Member

    Joined:
    Dec 11, 2011
    Messages:
    4,352
    Likes Received:
    3,955
    Gender:
    Male
    Occupation:
    Full Time Bot Developer
    Location:
    Professional Botters
    Home Page:
  3. CodingAndStuff

    CodingAndStuff Regular Member

    Joined:
    May 6, 2012
    Messages:
    236
    Likes Received:
    84
    Occupation:
    Swagstronaut
    Location:
    You can't have my bots. Sorry :'(
    It's an encoding issue. Vine checks the videos you upload against the proper codecs/metadata that should be there. If they don't match up, you're boned. Use a tool like ffmpeg or something similar to properly encode your video before you upload.

    [h=2]Video[/h]
    ID : 1
    Format : AVC
    Format/Info : Advanced Video Codec
    Format profile : Main@L3.0
    Format settings, CABAC : No
    Format settings, ReFrames : 1 frame
    Format settings, GOP : M=1, N=30
    Codec ID : avc1
    Codec ID/Info : Advanced Video Coding
    Duration : 6s 473ms
    Bit rate : 1 128 Kbps
    Width : 480 pixels
    Height : 480 pixels
    Display aspect ratio : 1.000
    Frame rate mode : Variable
    Frame rate : 29.970 fps
    Minimum frame rate : 28.571 fps
    Maximum frame rate : 30.000 fps
    Color space : YUV
    Chroma subsampling : 4:2:0
    Bit depth : 8 bits
    Scan type : Progressive
    Bits/(Pixel*Frame) : 0.163
    Stream size : 891 KiB (94%)
    Title : Core Media Video
    Encoded date : UTC 2013-06-21 00:48:43
    Tagged date : UTC 2013-06-21 00:49:11
    Color primaries : BT.709
    Transfer characteristics : BT.709
    Matrix coefficients : BT.601
    [h=2]Audio[/h]
    ID : 2
    Format : AAC
    Format/Info : Advanced Audio Codec
    Format profile : LC
    Codec ID : 40
    Duration : 6s 548ms
    Source duration : 6s 618ms
    Bit rate mode : Constant
    Bit rate : 64.0 Kbps
    Channel(s) : 2 channels
    Original Channel count : 1 channel
    Channel positions : Front: C
    Sampling rate : 44.1 KHz
    Compression mode : Lossy
    Stream size : 50.7 KiB (5%)
    Source stream size : 51.2 KiB (5%)
    Title : Core Media Audio
    Encoded date : UTC 2013-06-21 00:48:43
    Tagged date : UTC 2013-06-21 00:49:11
     
  4. bmariexo

    bmariexo Registered Member

    Joined:
    Mar 23, 2013
    Messages:
    53
    Likes Received:
    4

    I have been using iExplorer and Handbrake for re-encoding.
     
  5. CodingAndStuff

    CodingAndStuff Regular Member

    Joined:
    May 6, 2012
    Messages:
    236
    Likes Received:
    84
    Occupation:
    Swagstronaut
    Location:
    You can't have my bots. Sorry :'(
    Use ffmpeg and mp4box.
     
  6. bmariexo

    bmariexo Registered Member

    Joined:
    Mar 23, 2013
    Messages:
    53
    Likes Received:
    4


    Are you still able to upload videos? I re encode but no luck on getting them to stick. PM me please
     
  7. EveCarp

    EveCarp Regular Member

    Joined:
    May 21, 2013
    Messages:
    203
    Likes Received:
    39
    Occupation:
    Internet Marketer - Black Hatter
    Location:
    Twinstavine
    I use handbrake + iexplorer and they still stick for me. :)
     
  8. twitter.followers

    twitter.followers Elite Member

    Joined:
    Mar 23, 2011
    Messages:
    1,768
    Likes Received:
    2,208
    I have been using the ffmpeg and mp4box combination and they seem to stick for me as well.
     
  9. FJX

    FJX Jr. VIP Jr. VIP Premium Member

    Joined:
    Oct 13, 2011
    Messages:
    356
    Likes Received:
    186
    Location:
    0x90
    You don't need neither of those :)